Vitusus- Deep night (deep house set)

Vaše produkce a názory na ní, české a slovenské elektronické kapely a projekty
Odpovědět
Poldas
Příspěvky: 12
Registrován: 27 srp 2009 22:38

Vitusus- Deep night (deep house set)

Příspěvek od Poldas » 01 pro 2009 21:16

Zdravím, napadlo mě tady hodit setík co jsem mixnul

Deep night

SET LIST

1. William Besson-Come Around (Terry Lee Brown Jr Remix)
2.The Timewriter-Flicking Pages (Budai&Vic Remix)
3.Budai & Vic-All Night Long (Original Mix)
4.NACHO MARCO - The next life (The Timewriter remix)
5.Budai & Vic-Rollerbar (Terry Lee Brown Junior Remix)
6.The Timewriter-So much Pain Inside (Terry Lee Brown Junior's Pain On Dub)
7.Budai & Vic-The Sweetest Tune I Need - Jeff Bennett Remix
8.Tigershape-31 Sec
9.Babak Shayan-Seasons (Robert Babicz Remix)
10.Ivogima-Counter (Original Version)


http://www.edisk.cz/stahnout-soubor/728 ... .51MB.html

Uživatelský avatar
upman
Příspěvky: 1587
Registrován: 08 zář 2004 16:29
Vybavení

Re: Vitusus- Deep night (deep house set)

Příspěvek od upman » 03 pro 2009 15:57

Parada, me se to libi a slape to pekne a huste, az sem to musel z repraku hodit na sluchadka, prej z toho duni celej barak :)
Mac mini, Logic 9, MOTU Ultralite, PadKontrol, Novation SL37, IK VSTs
http://bandzone.cz/lifelies

Poldas
Příspěvky: 12
Registrován: 27 srp 2009 22:38

Re: Vitusus- Deep night (deep house set)

Příspěvek od Poldas » 04 pro 2009 19:04

díky za názor :) :)

Uživatelský avatar
Vlad
Příspěvky: 1022
Registrován: 27 bře 2006 19:34

Re: Vitusus- Deep night (deep house set)

Příspěvek od Vlad » 04 pro 2009 21:17

chtelo by to .cue soubor na rozsekani. Jestli mas, tak to sem hod. Dik

Poldas
Příspěvky: 12
Registrován: 27 srp 2009 22:38

Re: Vitusus- Deep night (deep house set)

Příspěvek od Poldas » 04 pro 2009 22:00

moc nerozumím tvému příspěvku (sorry :( ) ale když mi vysvětlíš co mám udělat tak by neměl být problém :?

Uživatelský avatar
Vlad
Příspěvky: 1022
Registrován: 27 bře 2006 19:34

Re: Vitusus- Deep night (deep house set)

Příspěvek od Vlad » 04 pro 2009 22:16

cue je koncovka textovyho souboru, kde jsou ulozeny informace o jednotlivych stopach - nazev tracku a jeho cas, kdy zacina a konci.
Pak muzes vzit ten svuj mp3 set, prevedes ho do wavu a prilozenym cue souborem ho otevres ve virtualni mechanice nebo v neru.
Tam se ti to otevre po jednotlivych stopach i s jejimy nazvy.
http://cs.wikipedia.org/wiki/Cue_seznam

priklad cue souboru:
PERFORMER "bonobo"
TITLE "dial 'm' for monkey"
FILE "01-bonobo--dial_m_for_monkey-csa.wav" WAVE
TRACK 01 AUDIO
TITLE "noctuary"
PERFORMER "bonobo"
INDEX 01 00:00:00
TRACK 02 AUDIO
TITLE "flutter"
PERFORMER "bonobo"
INDEX 01 05:22:28
TRACK 03 AUDIO
TITLE "d song"
PERFORMER "bonobo"
INDEX 01 10:06:49
TRACK 04 AUDIO
TITLE "change down"
PERFORMER "bonobo"
INDEX 00 15:26:17
INDEX 01 15:26:24
TRACK 05 AUDIO
TITLE "wayward bob"
PERFORMER "bonobo"
INDEX 00 19:58:59
INDEX 01 19:59:25


atd. Das tam nazvy tech pisnicek v setu, das tam spravny casovy informace, nazev setu a je to. Konecnej INDEX 01 bude celkova delka
Zkopiruj to a zkus si to

Uživatelský avatar
Vlad
Příspěvky: 1022
Registrován: 27 bře 2006 19:34

Re: Vitusus- Deep night (deep house set)

Příspěvek od Vlad » 19 pro 2009 20:39

Tak se mi ten cue soubor podaril vyladit. Nutny je prevod toho setu z mp3 do wavu a zadani spravneho nazvu te wavky v cue souboru.
Potom bacha na konec celyho setu, mel jsi tam chybu. Taky je nutny psat casy jednotlivejch tracku ve formatu xx:xx:xx
Tady je ten spravny cue soubor:

PERFORMER "Vitusus"
TITLE "Deep night"
FILE "Vitusus-Deep_night.wav" WAVE
TRACK 01 AUDIO
TITLE "Come Around (Terry Lee Brown Jr Remix)"
PERFORMER "William Besson"
INDEX 01 00:00:00
TRACK 02 AUDIO
TITLE "Flicking Pages (Budai&Vic Remix)"
PERFORMER "The Timewriter"
INDEX 01 05:50:00
TRACK 03 AUDIO
TITLE "All Night Long (Original Mix)"
PERFORMER "Budai & Vic"
INDEX 01 09:00:00
TRACK 04 AUDIO
TITLE "The next life (The Timewriter remix)"
PERFORMER "NACHO MARCO"
INDEX 01 13:21:00
TRACK 05 AUDIO
TITLE "Rollerbar (Terry Lee Brown Junior Remix)"
PERFORMER "Budai & Vic"
INDEX 01 17:55:00
TRACK 06 AUDIO
TITLE "So much Pain Inside (Terry Lee Brown Junior's Pain On Dub)"
PERFORMER "The Timewriter"
INDEX 01 23:14:00
TRACK 07 AUDIO
TITLE "The Sweetest Tune I Need - Jeff Bennett Remix"
PERFORMER "Budai & Vic"
INDEX 01 27:44:00
TRACK 08 AUDIO
TITLE "31 Sec"
PERFORMER "Tigershape"
INDEX 01 30:31:00
TRACK 09 AUDIO
TITLE "Seasons (Robert Babicz Remix)"
PERFORMER "Babak Shayan"
INDEX 01 35:50:00
TRACK 10 AUDIO
TITLE "Counter (Original Version)"
PERFORMER "Ivogima"
INDEX 01 38:35:00
TRACK 11 AUDIO
TITLE "The Space in Between(original mix)"
PERFORMER "Bucher&Kessidis"
INDEX 00 43:50:00
INDEX 01 43:59:00

pak se mi to krasne zobrazi takhle:
Obrázek

Uživatelský avatar
esu
Příspěvky: 66
Registrován: 05 čer 2009 11:48

Re: Vitusus- Deep night (deep house set)

Příspěvek od esu » 27 pro 2009 10:50

Chlape tys mě potěšil, učebnicovej deephouse, moc pěkný, už mi to tu tucká :) tuck tuck :twisted:
" hudba se dělí pouze na dva druhy... hudba dobrá a hudba špatná..."
(i5QC, TC48, A6, A7)

Poldas
Příspěvky: 12
Registrován: 27 srp 2009 22:38

Re: Vitusus- Deep night (deep house set)

Příspěvek od Poldas » 29 pro 2009 11:15

Díky :)

Odpovědět